»
»

/ Th 10th Kngdm [ 1-5] ( , ) [2-Ds St] [2000, , , , , , , Blu-r 1080] 5MV(rus,ukr)+V -

, . - , .

1 [ 624.0 KB/s ] ↑ 87.8 GB ↓ 0 [ 0 b/s ]
rainbow.n
2017-01-11 21:45
/ Th 10th Kngdm [ 1-5]  / The 10th Kingdom [ 1-5]
: (, )
: ,
: Blu-r, BDMV, H.264, 3
: , ,
: ,
: , , , , ,
: 5 ~01:25:48
: 2000

: -, , , , , Β, -, , , Β

: - , , , -. , .
, ... , , .


MDB: 8.4/10
.Ru: 8.461

: 19201080 (16:9) / 25 fs / V MG-4 (264) / Hgh@L4.1 / ~ 20317 kbs

#1: : Dlb Dgtl ud / 5.1 / 48 kHz / 448 kbs / DN -4dB [ (, ) ѳnm rstg]
#2: : Dlb Dgtl ud / 5.1 / 48 kHz / 448 kbs / DN -4dB [ () . ]
#3: : Dlb Dgtl ud / 2.0 / 48 kHz / 192 kbs / DN -4dB [ (, ) - (VHS)]
#4: : Dlb Dgtl ud / 5.1 / 48 kHz / 448 kbs / DN -4dB [ (, ) -Dgtl]
#5: : Dlb Dgtl ud / 2.0 / 48 kHz / 192 kbs / DN -4dB [ (, ) TV]
#6: : Dlb Dgtl ud / 2.0 / 48 kHz / 192 kbs / DN -4dB [ (, ) -]
#7: : Dlb Dgtl ud / 5.1 / 48 kHz / 448 kbs / DN -4dB []
#8: : Dlb Dgtl ud / 2.0 / 48 kHz / 448 kbs [sltd musl sr trk]

MV -Dgtl
MV ѳnm rstg
BDnf
DS NF:

Ds Ttl: TH_10TH_KNGDM_2000_DSK_1
Ds Sz: 47 144 410 901 bts
rttn: S
BD-Jv: Ys
trs: 50Hz ntnt
BDnf: 0.5.8

LYLST RRT:

Nm: 00003.MLS
Lngth: 1:25:48.600 (h:m:s.ms)
Sz: 15 784 925 184 bts
Ttl Btrt: 24,53 Mbs

VD:

d Btrt Dsrtn
----- ------- -----------
MG-4 V Vd 20317 kbs 1080 / 25 fs / 16:9 / Hgh rfl 4.1

UD:

d Lngug Btrt Dsrtn
----- -------- ------- -----------
Dlb Dgtl ud Russn 448 kbs 5.1 / 48 kHz / 448 kbs / DN -4dB
Dlb Dgtl ud Russn 448 kbs 5.1 / 48 kHz / 448 kbs / DN -4dB
Dlb Dgtl ud Russn 192 kbs 2.0 / 48 kHz / 192 kbs / DN -4dB
Dlb Dgtl ud Russn 448 kbs 5.1 / 48 kHz / 448 kbs / DN -4dB
Dlb Dgtl ud Ukrnn 192 kbs 2.0 / 48 kHz / 192 kbs / DN -4dB
Dlb Dgtl ud Ukrnn 192 kbs 2.0 / 48 kHz / 192 kbs / DN -4dB
Dlb Dgtl ud nglsh 448 kbs 5.1 / 48 kHz / 448 kbs / DN -4dB
Dlb Dgtl ud nglsh 448 kbs 2.0 / 48 kHz / 448 kbs

SUBTTLS:

d Lngug Btrt Dsrtn
----- -------- ------- -----------
rsnttn Grhs Russn 38,553 kbs
rsnttn Grhs nglsh 57,045 kbs

FLS:

Nm Tm n Lngth Sz Ttl Btrt
---- ------- ------ ---- -------------
00005.M2TS 0:00:00.000 1:25:48.600 15 784 925 184 24 527

DS NF:

Ds Ttl: TH_10TH_KNGDM_2000_DSK_1
Ds Sz: 47144410901 bts
rttn: S
BD-Jv: Ys
trs: 50Hz ntnt
BDnf: 0.5.8

LYLST RRT:

Nm: 00005.MLS
Lngth: 1:25:23.920 (h:m:s.ms)
Sz: 15564128256 bts
Ttl Btrt: 24,30 Mbs

VD:

d Btrt Dsrtn
----- ------- -----------
MG-4 V Vd 20089 kbs 1080 / 25 fs / 16:9 / Hgh rfl 4.1

UD:

d Lngug Btrt Dsrtn
----- -------- ------- -----------
Dlb Dgtl ud Russn 448 kbs 5.1 / 48 kHz / 448 kbs / DN -4dB
Dlb Dgtl ud Russn 448 kbs 5.1 / 48 kHz / 448 kbs / DN -4dB
Dlb Dgtl ud Russn 192 kbs 2.0 / 48 kHz / 192 kbs / DN -4dB
Dlb Dgtl ud Russn 448 kbs 5.1 / 48 kHz / 448 kbs / DN -4dB
Dlb Dgtl ud Ukrnn 192 kbs 2.0 / 48 kHz / 192 kbs / DN -4dB
Dlb Dgtl ud Ukrnn 192 kbs 2.0 / 48 kHz / 192 kbs / DN -4dB
Dlb Dgtl ud nglsh 448 kbs 5.1 / 48 kHz / 448 kbs / DN -4dB
Dlb Dgtl ud nglsh 448 kbs 2.0 / 48 kHz / 448 kbs

SUBTTLS:

d Lngug Btrt Dsrtn
----- -------- ------- -----------
rsnttn Grhs Russn 44,251 kbs
rsnttn Grhs nglsh 62,033 kbs

FLS:

Nm Tm n Lngth Sz Ttl Btrt
---- ------- ------ ---- -------------
00009.M2TS 0:00:00.000 1:25:23.920 15564128256 24300

DS NF:

Ds Ttl: TH_10TH_KNGDM_2000_DSK_1
Ds Sz: 47144410901 bts
rttn: S
BD-Jv: Ys
trs: 50Hz ntnt
BDnf: 0.5.8

LYLST RRT:

Nm: 00004.MLS
Lngth: 1:24:42.800 (h:m:s.ms)
Sz: 15420198912 bts
Ttl Btrt: 24,27 Mbs

VD:

d Btrt Dsrtn
----- ------- -----------
MG-4 V Vd 20084 kbs 1080 / 25 fs / 16:9 / Hgh rfl 4.1

UD:

d Lngug Btrt Dsrtn
----- -------- ------- -----------
Dlb Dgtl ud Russn 448 kbs 5.1 / 48 kHz / 448 kbs / DN -4dB
Dlb Dgtl ud Russn 448 kbs 5.1 / 48 kHz / 448 kbs / DN -4dB
Dlb Dgtl ud Russn 192 kbs 2.0 / 48 kHz / 192 kbs / DN -4dB
Dlb Dgtl ud Russn 448 kbs 5.1 / 48 kHz / 448 kbs / DN -4dB
Dlb Dgtl ud Ukrnn 192 kbs 2.0 / 48 kHz / 192 kbs / DN -4dB
Dlb Dgtl ud Ukrnn 192 kbs 2.0 / 48 kHz / 192 kbs / DN -4dB
Dlb Dgtl ud nglsh 448 kbs 5.1 / 48 kHz / 448 kbs / DN -4dB
Dlb Dgtl ud nglsh 448 kbs 2.0 / 48 kHz / 448 kbs

SUBTTLS:

d Lngug Btrt Dsrtn
----- -------- ------- -----------
rsnttn Grhs Russn 35,459 kbs
rsnttn Grhs nglsh 48,203 kbs

FLS:

Nm Tm n Lngth Sz Ttl Btrt
---- ------- ------ ---- -------------
00007.M2TS 0:00:00.000 1:24:42.800 15420198912 24270

DS NF:

Ds Ttl: TH_10TH_KNGDM_2000_DSK_2
Ds Sz: 47 084 334 109 bts
rttn: S
BD-Jv: Ys
trs: 50Hz ntnt
BDnf: 0.5.8

LYLST RRT:

Nm: 00004.MLS
Lngth: 1:24:40.720 (h:m:s.ms)
Sz: 17 306 861 568 bts
Ttl Btrt: 27,25 Mbs

VD:

d Btrt Dsrtn
----- ------- -----------
MG-4 V Vd 22939 kbs 1080 / 25 fs / 16:9 / Hgh rfl 4.1

UD:

d Lngug Btrt Dsrtn
----- -------- ------- -----------
Dlb Dgtl ud Russn 448 kbs 5.1 / 48 kHz / 448 kbs / DN -4dB
Dlb Dgtl ud Russn 448 kbs 5.1 / 48 kHz / 448 kbs / DN -4dB
Dlb Dgtl ud Russn 192 kbs 2.0 / 48 kHz / 192 kbs / DN -4dB
Dlb Dgtl ud Russn 448 kbs 5.1 / 48 kHz / 448 kbs / DN -4dB
Dlb Dgtl ud Ukrnn 192 kbs 2.0 / 48 kHz / 192 kbs / DN -4dB
Dlb Dgtl ud Ukrnn 192 kbs 2.0 / 48 kHz / 192 kbs / DN -4dB
Dlb Dgtl ud nglsh 448 kbs 5.1 / 48 kHz / 448 kbs / DN -4dB
Dlb Dgtl ud nglsh 448 kbs 2.0 / 48 kHz / 448 kbs

SUBTTLS:

d Lngug Btrt Dsrtn
----- -------- ------- -----------
rsnttn Grhs Russn 40,140 kbs
rsnttn Grhs nglsh 54,432 kbs

FLS:

Nm Tm n Lngth Sz Ttl Btrt
---- ------- ------ ---- -------------
00005.M2TS 0:00:00.000 1:24:40.720 17 306 861 568 27 251

DS NF:

Ds Ttl: TH_10TH_KNGDM_2000_DSK_2
Ds Sz: 47084334109 bts
rttn: S
BD-Jv: Ys
trs: 50Hz ntnt
BDnf: 0.5.8

LYLST RRT:

Nm: 00005.MLS
Lngth: 1:24:33.280 (h:m:s.ms)
Sz: 17268928512 bts
Ttl Btrt: 27,23 Mbs

VD:

d Btrt Dsrtn
----- ------- -----------
MG-4 V Vd 22939 kbs 1080 / 25 fs / 16:9 / Hgh rfl 4.1

UD:

d Lngug Btrt Dsrtn
----- -------- ------- -----------
Dlb Dgtl ud Russn 448 kbs 5.1 / 48 kHz / 448 kbs / DN -4dB
Dlb Dgtl ud Russn 448 kbs 5.1 / 48 kHz / 448 kbs / DN -4dB
Dlb Dgtl ud Russn 192 kbs 2.0 / 48 kHz / 192 kbs / DN -4dB
Dlb Dgtl ud Russn 448 kbs 5.1 / 48 kHz / 448 kbs / DN -4dB
Dlb Dgtl ud Ukrnn 192 kbs 2.0 / 48 kHz / 192 kbs / DN -4dB
Dlb Dgtl ud Ukrnn 192 kbs 2.0 / 48 kHz / 192 kbs / DN -4dB
Dlb Dgtl ud nglsh 448 kbs 5.1 / 48 kHz / 448 kbs / DN -4dB
Dlb Dgtl ud nglsh 448 kbs 2.0 / 48 kHz / 448 kbs

SUBTTLS:

d Lngug Btrt Dsrtn
----- -------- ------- -----------
rsnttn Grhs Russn 32,897 kbs
rsnttn Grhs nglsh 43,428 kbs

FLS:

Nm Tm n Lngth Sz Ttl Btrt
---- ------- ------ ---- -------------
00007.M2TS 0:00:00.000 1:24:33.280 17268928512 27231

:
: 87.8 GB
: 261
:
: 2017-01-11 20:45


— :

?

-.

@@
2017-01-13 07:25
:thanks: ;)
- .
.